Without You [Dumb fgt]

View previous topic View next topic Go down

Without You [Dumb fgt]

Post by Genetix on Tue Aug 05, 2014 2:50 am

[center]



Direct Download Link
http://tinyurl.com/lhnkxru

Anime: BLEACH
Music:
      Artist-C2C
      Song-F.U.Y.A.


Media Information:
Title
Without You
Video--
Format    : MPEG-4 / AVC
Duration  : 1mn 43s
Bit rate    : 18.6 Mbps
Display aspect ratio  : 16:9
Frame rate  : 23.976 fps
Bit depth  : 8 bits
Stream size  : 231 MiB (99%)
Audio--
Format   : AAC
Bit rate   : 192 Kbps
Channel(s)  :  channel0
Channel(s)_Original   : 2 channels
Channel positions  : Front: L R
Sampling rate    : 48.0 KHz
Compression mode   : Lossy
Stream size  : 2.38 MiB (1%)


AMV description
Time taken: 2 weeks
Software: Sony Vegas Pro 10
Note:
Tried some new things overall an experimental video testing this and that like removing/cleaning some stuffs. The mask bug at 1:26 "I forgot" to feather it... sorry, but I won't RE-Render again!


Last edited by Genetix on Tue Aug 05, 2014 2:52 am; edited 1 time in total

Genetix

Posts : 19
Join date : 2014-06-24
Age : 21
Location : BG

View user profile https://www.youtube.com/user/DARKAxDamv/

Back to top Go down

Re: Without You [Dumb fgt]

Post by Kyoroichi on Tue Aug 05, 2014 2:50 am

what a dumb fgt

Kyoroichi

Posts : 992
Join date : 2012-04-07
Age : 20
Location : Trinidad

View user profile http://www.youtube.com/user/Kyoroichi

Back to top Go down

Re: Without You [Dumb fgt]

Post by Vipertrix on Tue Aug 05, 2014 2:57 am

Don't be such a dumb nigga chris

Vipertrix
Admin
Admin

Posts : 415
Join date : 2012-08-11
Age : 21
Location : New Zealand, Hawkes Bay

View user profile http://www.youtube.com/user/vipertrixAMV

Back to top Go down

Re: Without You [Dumb fgt]

Post by RealLoosenDreamer on Tue Aug 05, 2014 3:07 am

i cri liek everitim

RealLoosenDreamer

Posts : 32
Join date : 2013-04-06

View user profile

Back to top Go down

Re: Without You [Dumb fgt]

Post by Kisagi on Tue Aug 05, 2014 11:40 am

where's the sex?

Kisagi

Posts : 750
Join date : 2012-11-19
Age : 19
Location : In the artistic world

View user profile http://www.youtube.com/user/KisagiAMV

Back to top Go down

Re: Without You [Dumb fgt]

Post by Vipertrix on Tue Aug 05, 2014 11:53 am

wtf

Vipertrix
Admin
Admin

Posts : 415
Join date : 2012-08-11
Age : 21
Location : New Zealand, Hawkes Bay

View user profile http://www.youtube.com/user/vipertrixAMV

Back to top Go down

Re: Without You [Dumb fgt]

Post by Kyoroichi on Tue Aug 05, 2014 5:06 pm

dumb fgts

Kyoroichi

Posts : 992
Join date : 2012-04-07
Age : 20
Location : Trinidad

View user profile http://www.youtube.com/user/Kyoroichi

Back to top Go down

Re: Without You [Dumb fgt]

Post by Vipertrix on Wed Aug 06, 2014 12:10 am


Vipertrix
Admin
Admin

Posts : 415
Join date : 2012-08-11
Age : 21
Location : New Zealand, Hawkes Bay

View user profile http://www.youtube.com/user/vipertrixAMV

Back to top Go down

Re: Without You [Dumb fgt]

Post by Genetix on Wed Aug 06, 2014 1:01 am

:DDDDd thanks for the critism guys! i ll work more on it!

Genetix

Posts : 19
Join date : 2014-06-24
Age : 21
Location : BG

View user profile https://www.youtube.com/user/DARKAxDamv/

Back to top Go down

Re: Without You [Dumb fgt]

Post by Vipertrix on Wed Aug 06, 2014 1:57 am

wut critism ._.

Vipertrix
Admin
Admin

Posts : 415
Join date : 2012-08-11
Age : 21
Location : New Zealand, Hawkes Bay

View user profile http://www.youtube.com/user/vipertrixAMV

Back to top Go down

Re: Without You [Dumb fgt]

Post by Kyoroichi on Wed Aug 06, 2014 1:57 am

genetix, you must be confused...ya dumb fgt

Kyoroichi

Posts : 992
Join date : 2012-04-07
Age : 20
Location : Trinidad

View user profile http://www.youtube.com/user/Kyoroichi

Back to top Go down

Re: Without You [Dumb fgt]

Post by Sponsored content Today at 11:34 am


Sponsored content


Back to top Go down

View previous topic View next topic Back to top

- Similar topics

 
Permissions in this forum:
You cannot reply to topics in this forum